The Crown – Stagione 4 (2020) [Completa] .mkv DLMux 1080p E-AC3 ENG ITA AC3 ITA SUBS | 17,8 Gb

Mirrors: EasyBytez & Share-Online

Dovere. Famiglia. Potere. Una giovane donna arriva a governare un impero tra le sfide dell’età moderna.

Titolo originale: The Crown
Genere: Drammatico e Storico
Regista: Peter Morgan
Attori: Luis Tosar, Marta Belmonte, Carlos Blanco
Stagione: 4
Episodi: 10
Nazione: Inghilterra

Report MediaInfo

[spoiler]General
Unique ID : 286358447676123596358515478029257120846 (0xD76EA18406060A6CBAEAEF5274BB9C4E)
Complete name : D:asdRipThe Crown – Stagione 4 (2020) [Completa] .mkv DLMux 1080p E-AC3 ENG ITA AC3 ITA SUBSThe Crown S04E01 Gold Stick DLMux 1080p E-AC3+AC3 ITA ENG SUBS.mkv
Format : Matroska
Format version : Version 4
File size : 1.94 GiB
Duration : 54 min 10 s
Overall bit rate : 5 124 kb/s
Encoded date : UTC 2020-11-15 09:51:24
Writing application : mkvmerge v50.0.0 (‘Awakenings’) 64-bit
Writing library : libebml v1.4.0 + libmatroska v1.6.2

Video
ID : 1
Format : AVC
Format/Info : Advanced Video Codec
Format profile : [email protected]
Format settings : CABAC / 3 Ref Frames
Format settings, CABAC : Yes
Format settings, Reference frames : 3 frames
Codec ID : V_MPEG4/ISO/AVC
Duration : 54 min 10 s
Bit rate : 3 202 kb/s
Width : 1 920 pixels
Height : 1 080 pixels
Display aspect ratio : 16:9
Frame rate mode : Constant
Frame rate : 25.000 FPS
Color space : YUV
Chroma subsampling : 4:2:0
Bit depth : 8 bits
Scan type : Progressive
Bits/(Pixel*Frame) : 0.062
Stream size : 1.21 GiB (62%)
Default : Yes
Forced : No

Audio #1
ID : 2
Format : AC-3
Format/Info : Audio Coding 3
Commercial name : Dolby Digital
Codec ID : A_AC3
Duration : 54 min 10 s
Bit rate mode : Constant
Bit rate : 640 kb/s
Channel(s) : 6 channels
Channel layout : L R C LFE Ls Rs
Sampling rate : 48.0 kHz
Frame rate : 31.250 FPS (1536 SPF)
Compression mode : Lossy
Delay relative to video : -80 ms
Stream size : 248 MiB (12%)
Title : AC3 5.1 @ DOLBY
Language : Italian
Service kind : Complete Main
Default : Yes
Forced : No

Audio #2
ID : 3
Format : E-AC-3
Format/Info : Enhanced AC-3
Commercial name : Dolby Digital Plus
Codec ID : A_EAC3
Duration : 54 min 10 s
Bit rate mode : Constant
Bit rate : 640 kb/s
Channel(s) : 6 channels
Channel layout : L R C LFE Ls Rs
Sampling rate : 48.0 kHz
Frame rate : 31.250 FPS (1536 SPF)
Compression mode : Lossy
Delay relative to video : -80 ms
Stream size : 248 MiB (12%)
Title : E-AC3 5.1 @ DOLBY
Language : English
Service kind : Complete Main
Default : No
Forced : No

Audio #3
ID : 4
Format : E-AC-3
Format/Info : Enhanced AC-3
Commercial name : Dolby Digital Plus
Codec ID : A_EAC3
Duration : 54 min 10 s
Bit rate mode : Constant
Bit rate : 640 kb/s
Channel(s) : 6 channels
Channel layout : L R C LFE Ls Rs
Sampling rate : 48.0 kHz
Frame rate : 31.250 FPS (1536 SPF)
Compression mode : Lossy
Delay relative to video : -80 ms
Stream size : 248 MiB (12%)
Title : E-AC3 5.1 @ DOLBY
Language : Italian
Service kind : Complete Main
Default : No
Forced : No

Text #1
ID : 5
Format : UTF-8
Codec ID : S_TEXT/UTF8
Codec ID/Info : UTF-8 Plain Text
Duration : 52 min 18 s
Bit rate : 0 b/s
Count of elements : 11
Stream size : 329 Bytes (0%)
Title : Forced
Language : Italian
Default : Yes
Forced : No

Text #2
ID : 6
Format : UTF-8
Codec ID : S_TEXT/UTF8
Codec ID/Info : UTF-8 Plain Text
Duration : 52 min 18 s
Bit rate : 53 b/s
Count of elements : 555
Stream size : 20.4 KiB (0%)
Language : Italian
Default : No
Forced : No

Text #3
ID : 7
Format : UTF-8
Codec ID : S_TEXT/UTF8
Codec ID/Info : UTF-8 Plain Text
Duration : 50 min 30 s
Bit rate : 66 b/s
Count of elements : 678
Stream size : 24.5 KiB (0%)
Language : English
Default : No
Forced : No[/spoiler]

Link Download:

Download da EasyBytez & Share-Online