Quarto Processo – Stagione 1 (2020) [Completa] .mkv DLMux 1080p E-AC3 ENG ITA AC3 ITA SUBS | 16,6 Gb

Mirrors: EasyBytez & Share-Online

Accusato nel 1993 dell’omicidio di un poliziotto di Boston, Sean K. Ellis difende la sua innocenza denunciando la corruzione della polizia e il razzismo sistemico.

Titolo originale: Trial 4
Genere: Documentario e crimine
Stagione: 1
Episodi: 8
Nazione: Stati Uniti d’America

Screen



Report MediaInfo

[spoiler]General
Unique ID : 123888341653073010733706836213508437220 (0x5D3406D57BFFB4CB52B4C571792174E4)
Complete name : D:KabinoRipQuarto Processo – Stagione 1 (2020) [Completa] .mkv DLMux 1080p E-AC3 ENG ITA AC3 ITA SUBSIl quarto processo S01E01 Un omicidio simile a un’esecuzione DLMux 1080p E-AC3+AC3 ITA ENG SUBS.mkv
Format : Matroska
Format version : Version 4
File size : 2.39 GiB
Duration : 52 min 24 s
Overall bit rate : 6 516 kb/s
Encoded date : UTC 2020-11-16 13:06:00
Writing application : mkvmerge v50.0.0 (‘Awakenings’) 64-bit
Writing library : libebml v1.4.0 + libmatroska v1.6.2

Video
ID : 1
Format : AVC
Format/Info : Advanced Video Codec
Format profile : [email protected]
Format settings : CABAC / 4 Ref Frames
Format settings, CABAC : Yes
Format settings, Reference frames : 4 frames
Codec ID : V_MPEG4/ISO/AVC
Duration : 52 min 24 s
Bit rate : 4 593 kb/s
Width : 1 920 pixels
Height : 1 080 pixels
Display aspect ratio : 16:9
Frame rate mode : Constant
Frame rate : 23.976 (24000/1001) FPS
Color space : YUV
Chroma subsampling : 4:2:0
Bit depth : 8 bits
Scan type : Progressive
Bits/(Pixel*Frame) : 0.092
Stream size : 1.68 GiB (70%)
Default : Yes
Forced : No

Audio #1
ID : 2
Format : AC-3
Format/Info : Audio Coding 3
Commercial name : Dolby Digital
Codec ID : A_AC3
Duration : 52 min 24 s
Bit rate mode : Constant
Bit rate : 640 kb/s
Channel(s) : 6 channels
Channel layout : L R C LFE Ls Rs
Sampling rate : 48.0 kHz
Frame rate : 31.250 FPS (1536 SPF)
Compression mode : Lossy
Delay relative to video : -83 ms
Stream size : 240 MiB (10%)
Title : AC3 5.1 @ DOLBY
Language : Italian
Service kind : Complete Main
Default : Yes
Forced : No

Audio #2
ID : 3
Format : E-AC-3
Format/Info : Enhanced AC-3
Commercial name : Dolby Digital Plus
Codec ID : A_EAC3
Duration : 52 min 24 s
Bit rate mode : Constant
Bit rate : 640 kb/s
Channel(s) : 6 channels
Channel layout : L R C LFE Ls Rs
Sampling rate : 48.0 kHz
Frame rate : 31.250 FPS (1536 SPF)
Compression mode : Lossy
Delay relative to video : -83 ms
Stream size : 240 MiB (10%)
Title : E-AC3 5.1 @ DOLBY
Language : English
Service kind : Complete Main
Default : No
Forced : No

Audio #3
ID : 4
Format : E-AC-3
Format/Info : Enhanced AC-3
Commercial name : Dolby Digital Plus
Codec ID : A_EAC3
Duration : 52 min 24 s
Bit rate mode : Constant
Bit rate : 640 kb/s
Channel(s) : 6 channels
Channel layout : L R C LFE Ls Rs
Sampling rate : 48.0 kHz
Frame rate : 31.250 FPS (1536 SPF)
Compression mode : Lossy
Delay relative to video : -83 ms
Stream size : 240 MiB (10%)
Title : E-AC3 5.1 @ DOLBY
Language : Italian
Service kind : Complete Main
Default : No
Forced : No

Text #1
ID : 5
Format : UTF-8
Codec ID : S_TEXT/UTF8
Codec ID/Info : UTF-8 Plain Text
Duration : 50 min 53 s
Bit rate : 21 b/s
Count of elements : 181
Stream size : 8.05 KiB (0%)
Title : Forced
Language : Italian
Default : Yes
Forced : No

Text #2
ID : 6
Format : UTF-8
Codec ID : S_TEXT/UTF8
Codec ID/Info : UTF-8 Plain Text
Duration : 50 min 53 s
Bit rate : 84 b/s
Count of elements : 702
Stream size : 31.5 KiB (0%)
Language : Italian
Default : No
Forced : No

Text #3
ID : 7
Format : UTF-8
Codec ID : S_TEXT/UTF8
Codec ID/Info : UTF-8 Plain Text
Duration : 49 min 10 s
Bit rate : 97 b/s
Count of elements : 718
Stream size : 35.2 KiB (0%)
Language : English
Default : No
Forced : No[/spoiler]

Link Download:

Download da EasyBytez & Share-Online