I Favoriti di Mida – Stagione 1 (2020) [Completa] .mkv DLMux 1080p E-AC3 ENG ITA AC3 ITA SUBS | 10,5 Gb

Mirrors: EasyBytez & Share-Online

Un ricco editore riceve un messaggio di ricatto e deve prendere una decisione di vita o di morte. Ispirata a una storia di Jack London e ambientata nella Madrid di oggi.

Titolo originale: Los favoritos de Midas
Genere: Crimine, ddrammatico e thriller.
Regista: Mateo Gil
Attori: Luis Tosar, Marta Belmonte, Carlos Blanco
Stagione: 1
Episodi: 6
Nazione: Spagna

Screen



Report MediaInfo

[spoiler]General
Unique ID : 248330334982832708916405869893282593993 (0xBAD2AECD93061E0EA06A0A83D2727CC9)
Complete name : D:asdRipI Favoriti di Mida – Stagione 1 (2020) [Completa] .mkv DLMux 1080p E-AC3 ENG ITA AC3 ITA SUBSI favoriti di Mida S01E01 Il dilemma DLMux 1080p E-AC3+AC3 ITA ENG SUBS.mkv
Format : Matroska
Format version : Version 4
File size : 1.87 GiB
Duration : 49 min 49 s
Overall bit rate : 5 375 kb/s
Encoded date : UTC 2020-11-13 10:26:15
Writing application : mkvmerge v50.0.0 (‘Awakenings’) 64-bit
Writing library : libebml v1.4.0 + libmatroska v1.6.2

Video
ID : 1
Format : AVC
Format/Info : Advanced Video Codec
Format profile : [email protected]
Format settings : CABAC / 4 Ref Frames
Format settings, CABAC : Yes
Format settings, Reference frames : 4 frames
Codec ID : V_MPEG4/ISO/AVC
Duration : 49 min 49 s
Bit rate : 3 452 kb/s
Width : 1 920 pixels
Height : 1 080 pixels
Display aspect ratio : 16:9
Frame rate mode : Constant
Frame rate : 25.000 FPS
Color space : YUV
Chroma subsampling : 4:2:0
Bit depth : 8 bits
Scan type : Progressive
Bits/(Pixel*Frame) : 0.067
Stream size : 1.20 GiB (64%)
Default : Yes
Forced : No

Audio #1
ID : 2
Format : AC-3
Format/Info : Audio Coding 3
Commercial name : Dolby Digital
Codec ID : A_AC3
Duration : 49 min 49 s
Bit rate mode : Constant
Bit rate : 640 kb/s
Channel(s) : 6 channels
Channel layout : L R C LFE Ls Rs
Sampling rate : 48.0 kHz
Frame rate : 31.250 FPS (1536 SPF)
Compression mode : Lossy
Delay relative to video : -80 ms
Stream size : 228 MiB (12%)
Title : AC3 5.1 @ DOLBY
Language : Italian
Service kind : Complete Main
Default : Yes
Forced : No

Audio #2
ID : 3
Format : E-AC-3
Format/Info : Enhanced AC-3
Commercial name : Dolby Digital Plus
Codec ID : A_EAC3
Duration : 49 min 49 s
Bit rate mode : Constant
Bit rate : 640 kb/s
Channel(s) : 6 channels
Channel layout : L R C LFE Ls Rs
Sampling rate : 48.0 kHz
Frame rate : 31.250 FPS (1536 SPF)
Compression mode : Lossy
Delay relative to video : -80 ms
Stream size : 228 MiB (12%)
Title : E-AC3 5.1 @ DOLBY
Language : English
Service kind : Complete Main
Default : No
Forced : No

Audio #3
ID : 4
Format : E-AC-3
Format/Info : Enhanced AC-3
Commercial name : Dolby Digital Plus
Codec ID : A_EAC3
Duration : 49 min 49 s
Bit rate mode : Constant
Bit rate : 640 kb/s
Channel(s) : 6 channels
Channel layout : L R C LFE Ls Rs
Sampling rate : 48.0 kHz
Frame rate : 31.250 FPS (1536 SPF)
Compression mode : Lossy
Delay relative to video : -80 ms
Stream size : 228 MiB (12%)
Title : E-AC3 5.1 @ DOLBY
Language : Italian
Service kind : Complete Main
Default : No
Forced : No

Text #1
ID : 5
Format : UTF-8
Codec ID : S_TEXT/UTF8
Codec ID/Info : UTF-8 Plain Text
Duration : 38 min 5 s
Bit rate : 1 b/s
Count of elements : 18
Stream size : 415 Bytes (0%)
Title : Forced
Language : Italian
Default : Yes
Forced : No

Text #2
ID : 6
Format : UTF-8
Codec ID : S_TEXT/UTF8
Codec ID/Info : UTF-8 Plain Text
Duration : 48 min 51 s
Bit rate : 66 b/s
Count of elements : 732
Stream size : 23.7 KiB (0%)
Language : Italian
Default : No
Forced : No

Text #3
ID : 7
Format : UTF-8
Codec ID : S_TEXT/UTF8
Codec ID/Info : UTF-8 Plain Text
Duration : 47 min 16 s
Bit rate : 74 b/s
Count of elements : 737
Stream size : 25.8 KiB (0%)
Language : English
Default : No
Forced : No[/spoiler]

Link Download:

Download da EasyBytez & Share-Online