Ethos – Stagione 1 (2020) [Completa] .mkv DLMux 1080p E-AC3 ENG ITA AC3 ITA SUBS | 12,3 Gb

Mirrors: EasyBytez & Share-Online

A Istanbul alcune persone trascendono le barriere socioculturali e stabiliscono legami mentre sìintrecciano le loro paure e i loro desideri.

Titolo originale: Ethos
Genere: Drammatico
Attori: Alican Yücesoy, Bige Önal, Defne Kayalar, Fatih Artman, Funda Eryiğit, Öykü Karayel, Settar Tanrıöğen e Tülin Özen
Stagione: 1
Episodi: 8
Nazione: Turchia

Screen



Report MediaInfo

[spoiler]General
Unique ID : 257181127073680305882357590710855977067 (0xC17B488B587CECDC6DDAE779E2B4C86B)
Complete name : D:asdRipEthos – Stagione 1 (2020) [Completa] .mkv DLMux 1080p E-AC3 ENG ITA AC3 ITA SUBSEthos S01E01 Episodio 1 DLMux 1080p E-AC3+AC3 ITA ENG SUBS.mkv
Format : Matroska
Format version : Version 4
File size : 1.32 GiB
Duration : 49 min 10 s
Overall bit rate : 3 840 kb/s
Encoded date : UTC 2020-11-12 14:46:45
Writing application : mkvmerge v50.0.0 (‘Awakenings’) 64-bit
Writing library : libebml v1.4.0 + libmatroska v1.6.2

Video
ID : 1
Format : AVC
Format/Info : Advanced Video Codec
Format profile : [email protected]
Format settings : CABAC / 4 Ref Frames
Format settings, CABAC : Yes
Format settings, Reference frames : 4 frames
Codec ID : V_MPEG4/ISO/AVC
Duration : 49 min 10 s
Bit rate : 1 918 kb/s
Width : 1 920 pixels
Height : 1 080 pixels
Display aspect ratio : 16:9
Frame rate mode : Constant
Frame rate : 24.000 FPS
Color space : YUV
Chroma subsampling : 4:2:0
Bit depth : 8 bits
Scan type : Progressive
Bits/(Pixel*Frame) : 0.039
Stream size : 675 MiB (50%)
Default : Yes
Forced : No

Audio #1
ID : 2
Format : AC-3
Format/Info : Audio Coding 3
Commercial name : Dolby Digital
Codec ID : A_AC3
Duration : 49 min 10 s
Bit rate mode : Constant
Bit rate : 640 kb/s
Channel(s) : 6 channels
Channel layout : L R C LFE Ls Rs
Sampling rate : 48.0 kHz
Frame rate : 31.250 FPS (1536 SPF)
Compression mode : Lossy
Delay relative to video : -83 ms
Stream size : 225 MiB (17%)
Title : AC3 5.1 @ DOLBY
Language : Italian
Service kind : Complete Main
Default : Yes
Forced : No

Audio #2
ID : 3
Format : E-AC-3
Format/Info : Enhanced AC-3
Commercial name : Dolby Digital Plus
Codec ID : A_EAC3
Duration : 49 min 10 s
Bit rate mode : Constant
Bit rate : 640 kb/s
Channel(s) : 6 channels
Channel layout : L R C LFE Ls Rs
Sampling rate : 48.0 kHz
Frame rate : 31.250 FPS (1536 SPF)
Compression mode : Lossy
Delay relative to video : -83 ms
Stream size : 225 MiB (17%)
Title : E-AC3 5.1 @ DOLBY
Language : English
Service kind : Complete Main
Default : No
Forced : No

Audio #3
ID : 4
Format : E-AC-3
Format/Info : Enhanced AC-3
Commercial name : Dolby Digital Plus
Codec ID : A_EAC3
Duration : 49 min 10 s
Bit rate mode : Constant
Bit rate : 640 kb/s
Channel(s) : 6 channels
Channel layout : L R C LFE Ls Rs
Sampling rate : 48.0 kHz
Frame rate : 31.250 FPS (1536 SPF)
Compression mode : Lossy
Delay relative to video : -83 ms
Stream size : 225 MiB (17%)
Title : E-AC3 5.1 @ DOLBY
Language : Italian
Service kind : Complete Main
Default : No
Forced : No

Text #1
ID : 5
Format : UTF-8
Codec ID : S_TEXT/UTF8
Codec ID/Info : UTF-8 Plain Text
Duration : 47 min 59 s
Bit rate : 0 b/s
Count of elements : 4
Stream size : 93.0 Bytes (0%)
Title : Forced
Language : Italian
Default : Yes
Forced : No

Text #2
ID : 6
Format : UTF-8
Codec ID : S_TEXT/UTF8
Codec ID/Info : UTF-8 Plain Text
Duration : 47 min 59 s
Bit rate : 49 b/s
Count of elements : 514
Stream size : 17.6 KiB (0%)
Language : Italian
Default : No
Forced : No

Text #3
ID : 7
Format : UTF-8
Codec ID : S_TEXT/UTF8
Codec ID/Info : UTF-8 Plain Text
Duration : 47 min 59 s
Bit rate : 50 b/s
Count of elements : 443
Stream size : 17.6 KiB (0%)
Language : English
Default : No
Forced : No[/spoiler]

Link Download:

Download da EasyBytez & Share-Online