Superare i limiti – la scienza del nostro pianeta (2021) .mkv DLMux 1080p E-AC3+AC3 ITA ENG SUBS

Mirrors: EasyBytez & KatFile

David Attenborough e lo scienziato Johan Rockstrom analizzano il collasso della biodiversitĂ  sulla Terra e in che modo questa crisi possa ancora essere evitata.[/center]

[center]Titolo originale:Breaking Boundaries: The Science of Our Planet
Genere: Documentario
Regista: Jon Clay
Attori: David AttenboroughJohan Rockström
Nazione: Stati Uniti d’America[/center]

[center][color=#397B21][size=4]Screen[/size][/color]



[/center]

[center][color=#397B21][size=4]Report Avinaptic[/size][/color][/center]

[spoiler]General
Unique ID : 228829247298609579878535378122873984835 (0xAC26E8F2A3F02027EB3E7D1760435743)
Complete name : Superare i limiti – la scienza del nostro pianeta (2021) .mkv DLMux 1080p E-AC3+AC3 ITA ENG SUBS.mkv
Format : Matroska
Format version : Version 4
File size : 3.55 GiB
Duration : 1 h 13 min
Overall bit rate : 6 866 kb/s
Encoded date : UTC 2021-06-09 08:28:32
Writing application : mkvmerge v52.0.0 (‘Secret For The Mad’) 64-bit
Writing library : libebml v1.4.1 + libmatroska v1.6.2

Video
ID : 1
Format : AVC
Format/Info : Advanced Video Codec
Format profile : [email protected]
Format settings : CABAC / 4 Ref Frames
Format settings, CABAC : Yes
Format settings, Reference frames : 4 frames
Codec ID : V_MPEG4/ISO/AVC
Duration : 1 h 13 min
Bit rate : 4 944 kb/s
Width : 1 920 pixels
Height : 1 080 pixels
Display aspect ratio : 16:9
Frame rate mode : Constant
Frame rate : 23.976 (24000/1001) FPS
Color space : YUV
Chroma subsampling : 4:2:0
Bit depth : 8 bits
Scan type : Progressive
Bits/(Pixel*Frame) : 0.099
Stream size : 2.55 GiB (72%)
Default : Yes
Forced : No

Audio #1
ID : 2
Format : AC-3
Format/Info : Audio Coding 3
Commercial name : Dolby Digital
Codec ID : A_AC3
Duration : 1 h 13 min
Bit rate mode : Constant
Bit rate : 640 kb/s
Channel(s) : 6 channels
Channel layout : L R C LFE Ls Rs
Sampling rate : 48.0 kHz
Frame rate : 31.250 FPS (1536 SPF)
Compression mode : Lossy
Delay relative to video : -83 ms
Stream size : 339 MiB (9%)
Title : AC3 5.1 @ DOLBY
Language : Italian
Service kind : Complete Main
Default : Yes
Forced : No

Audio #2
ID : 3
Format : E-AC-3
Format/Info : Enhanced AC-3
Commercial name : Dolby Digital Plus
Codec ID : A_EAC3
Duration : 1 h 13 min
Bit rate mode : Constant
Bit rate : 640 kb/s
Channel(s) : 6 channels
Channel layout : L R C LFE Ls Rs
Sampling rate : 48.0 kHz
Frame rate : 31.250 FPS (1536 SPF)
Compression mode : Lossy
Delay relative to video : -83 ms
Stream size : 339 MiB (9%)
Title : E-AC3 5.1 @ DOLBY
Language : English
Service kind : Complete Main
Default : No
Forced : No

Audio #3
ID : 4
Format : E-AC-3
Format/Info : Enhanced AC-3
Commercial name : Dolby Digital Plus
Codec ID : A_EAC3
Duration : 1 h 13 min
Bit rate mode : Constant
Bit rate : 640 kb/s
Channel(s) : 6 channels
Channel layout : L R C LFE Ls Rs
Sampling rate : 48.0 kHz
Frame rate : 31.250 FPS (1536 SPF)
Compression mode : Lossy
Delay relative to video : -83 ms
Stream size : 339 MiB (9%)
Title : E-AC3 5.1 @ DOLBY
Language : Italian
Service kind : Complete Main
Default : No
Forced : No

Text #1
ID : 5
Format : UTF-8
Codec ID : S_TEXT/UTF8
Codec ID/Info : UTF-8 Plain Text
Duration : 1 h 13 min
Bit rate : 1 b/s
Count of elements : 25
Stream size : 722 Bytes (0%)
Title : Forced
Language : Italian
Default : Yes
Forced : No

Text #2
ID : 6
Format : UTF-8
Codec ID : S_TEXT/UTF8
Codec ID/Info : UTF-8 Plain Text
Duration : 1 h 13 min
Bit rate : 100 b/s
Count of elements : 1129
Stream size : 53.9 KiB (0%)
Language : Italian
Default : No
Forced : No

Text #3
ID : 7
Format : UTF-8
Codec ID : S_TEXT/UTF8
Codec ID/Info : UTF-8 Plain Text
Duration : 1 h 10 min
Bit rate : 104 b/s
Count of elements : 1099
Stream size : 54.3 KiB (0%)
Language : English
Default : No
Forced : No[/spoiler]

Link Download:

Download da EasyBytez & KatFile